Pelicula: City Of Ember En Busca de la Luz [HDrip] [2008] [Castellano]

 Descargar directa peliculas

Pelicula Descarga Directa: City Of Ember En Busca de la Luz [HDrip] [2008]

GÉNERO Aventuras. Fantástico
SINOPSIS Cuenta la historia de una oscura urbe donde la única luz existente proviene del alumbrado de las calles. Cuando la energía comienza a escasear, dos jóvenes buscan la manera de evitar el desastre y desvelan antiguos misterios de la ciudad…

Gracias a:[santorun1]

=>Ficha Tecnica:

TÍTULO ORIGINAL City of Ember
AÑO 2008
DURACIÓN 95 min.
PAÍS [Estados Unidos]
DIRECTOR Gil Kenan
GUIÓN Caroline Thompson (Libro: Jeanne Duprau)
MÚSICA Andrew Lockington
FOTOGRAFÍA Xavier Pérez Grobet
REPARTO Bill Murray, Tim Robbins, Saoirse Ronan, Mackenzie Crook, Martin Landau, Toby Jones, Harry Treadaway, Marianne Jean-Baptiste, Mary Kay Place
PRODUCTORA Playtone / Walden Media
WEB OFICIAL http://www.cityofember.com/

==>[Uploadep 1 ENLACE]: Para descargar pelicula Click en el OJO <==

PARTE 1 :
Gracias a:[santorun1]

==>[Uploadep 2 ENLACES]: Para descargar pelicula Click en el OJO <==

PARTE 1 : PARTE 2 :
Gracias a:[santorun1] Gracias a:[santorun1]

==>[Letitbit 1 ENLACE]: Para descargar pelicula Click en el OJO <==

PARTE 1 :
Gracias a:[santorun1]

==>[Letitbit 2 ENLACES]: Para descargar pelicula Click en el OJO <==

PARTE 1 : PARTE 2 :
Gracias a:[santorun1] Gracias a:[santorun1]

==>[Freakshare 2 ENLACES]: Para descargar pelicula Click en el OJO <==

PARTE 1 : PARTE 2 :
Gracias a:[santorun1] Gracias a:[santorun1]

==>[Freakshare 1 ENLACE]: Para descargar pelicula Click en el OJO <==

PARTE 1 :
Gracias a:[santorun1]

==>[Turbobit 2 ENLACES]: Para descargar pelicula Click en el OJO <==

PARTE 1 : PARTE 2 :
Gracias a:[santorun1] Gracias a:[santorun1]

==>[Turbobit 1 ENLACE]: Para descargar pelicula Click en el OJO <==

PARTE 1 :
Gracias a:[santorun1]

Descargar Pelicula: City Of Ember En Busca de la Luz [HDrip] [2008] [Castellano] (HD)
Ver Online Pelicula: City Of Ember En Busca de la Luz [HDrip] [2008] [Castellano]
Descargar Pelicula: City Of Ember En Busca de la Luz [HDrip] [2008] [Castellano]
Download Pelicula: City Of Ember En Busca de la Luz [HDrip] [2008] [Castellano]

Thor: El mundo oscuro (2013) [WEBRip] [Subtitulados]

FICHA TECNICA


Título original: Thor: The Dark World (Thor 2)
Año: 2013
Duración: 112 min.
País: Estados Unidos
Director: Alan Taylor
Guión: Christopher Yost, Christopher Markus, Stephen McFeely, Robert Rodat, Don Payne (Cómic: Jack Kirby, Stan Lee, Larry Lieber)
Música: Brian Tyler
Fotografía: Kramer Morgenthau
Reparto: Chris Hemsworth, Natalie Portman, Anthony Hopkins, Tom Hiddleston, Christopher Eccleston, Idris Elba, Kat Dennings, Adewale Akinnuoye-Agbaje, Jaimie Alexander, Tadanobu Asano, Stellan Skarsgård, Ray Stevenson, Alice Krige, Zachary Levi, Chris O’Dowd, Stan Lee
Productora: Marvel Entertainment / Marvel Studios
Género: Fantástico. Acción. Aventuras | Mitología. Superhéroes. Cómic. Marvel Comics. Secuela. 3-D


SIPNOSIS


En “Thor: El mundo oscuro”, Thor lucha por restablecer el orden en todo el cosmos… pero una antigua raza liderada por el vengativo Malekith regresa para volver a sumir al universo en la oscuridad. Thor se enfrenta a un enemigo al que ni siquiera Odín y Asgard pueden hacer frente, y deberá embarcarse en su viaje más peligroso a la vez que personal. En este viaje se reunirá con Jane Foster y le obligará a sacrificarlo todo para salvar el mundo.


CAPTURAS (propias)

INFORMACION

Calidad: WEBRip
Peso: 700 MB
Duracion: 112 min
Formato: Avi
Idioma: Ingles
Subtitulos: Si
 
NUEVA VERSION SUBTITULADA
 
DESCARGA





Descargar Thor: El mundo oscuro (2013) [WEBRip] [Subtitulados] (HD)

Ver Online Thor: El mundo oscuro (2013) [WEBRip] [Subtitulados]


Descargar Thor: El mundo oscuro (2013) [WEBRip] [Subtitulados]
Download Thor: El mundo oscuro (2013) [WEBRip] [Subtitulados]

Android Cop (2014) [BRRip] [Subtitulada]

FICHA TECNICA


Título original: Android Cop
Año: 2014
Duración: 90 min.
País: Estados Unidos
Director:  Mark Atkins
Reparto: Michael Jai White, Charles S. Dutton, Larissa Vereza, Kadeem Hardison, Deena Trudy, Jay Gillespie, Morgan Benoit, Kaiwi Lyman, Delpaneaux Wills, Randy Wayne
Productora: The Global Asylum
Género: Ciencia ficción. Acción. Thriller | Thriller futurista. Robots

SINOPSIS


En un futuro cercano, un policía y su compañero robótico deberán entrar en La Zona, una sección prohibida de la ciudad habitada por personas violentas e infectadas. Ambos deberán trabajar codo con codo para descubrir el origen de la enfermedad utilizando para ello la poderosa tecnología y armamento de la máquina.


CAPTURAS (propias)

INFORMACION


Calidad: BRRip
Peso: 1,24 GB
Duracion: 90 min
Formato: Avi
Idioma: Ingles
Subtitulos: Si

DESCARGA






Descargar Android Cop (2014) [BRRip] [Subtitulada] (HD)

Ver Online Android Cop (2014) [BRRip] [Subtitulada]


Descargar Android Cop (2014) [BRRip] [Subtitulada]
Download Android Cop (2014) [BRRip] [Subtitulada]

20 años no importan (2013) [DVDRip] [subtitulada]

FICHA TECNICA


Título original: 20 ans d’écart
Año: 2013
Duración: 92 min.
País: Francia
Director: David Moreau
Guión: Amro Hamzawi, Amro Hamzawi
Música: Guillaume Roussel
Fotografía: Laurent Tangy
Reparto: Virginie Efira, Pierre Niney, Gilles Cohen, Michaël Abiteboul, Charles Berling, Diana Stewart
Género:Romance. Comedia | Comedia romántica

SINOPSIS


Alice Lantins tiene 38 años, es bella, ambiciosa y su ambición profesional es tan grande que llega a olvidarse de su vida privada. Su objetivo es llegar a ser la próxima redactora jefe de la revista “Rebelle”. Pero, cuando se cruza en su camino el joven y encantador Balthazar, la opinión de sus compañeros de trabajo sobre ella cambiará totalmente.


CAPTURAS (propias)

INFORMACION


Calidad: DVDRip
Peso: 853 MB
Duracion: 92 min
Formato: Avi
Idioma: Ingles
Subtitulos: Si

DESCARGA






Descargar 20 años no importan (2013) [DVDRip] [subtitulada] (HD)

Ver Online 20 años no importan (2013) [DVDRip] [subtitulada]


Descargar 20 años no importan (2013) [DVDRip] [subtitulada]
Download 20 años no importan (2013) [DVDRip] [subtitulada]

Los Juegos Del Resacón (The Hungover Games) (2014) [DVDRip] [subtitulada]

FICHA TECNICA


Título original: The Hungover Games
Año: 2014
Duración: 85 min.
País: Estados Unidos
Director: Josh Stolberg
Guión: Kyle Barnett Anderson, David Bernstein (Argumento: Kyle Barnett Anderson, David Bernstein, Jamie Kennedy)
Música: Todd Haberman
Fotografía: Andrew Strahorn
Reparto: Ross Nathan, Ben Begley, Herbert Russell, Rita Volk, Tara Reid, Robert Wagner, Kyle Richards, Jamie Kennedy, Kayden Kross, Martin Klebba, Jonathan Silverman, Sophie Dee, Bruce Jenner
Productora: Sense and Sensibility Ventures / Silver Nitrate
Género: Comedia | Comedia absurda. Parodia

SINOPSIS


Tras celebrar la inminente boda de Doug, Bradley, Ed y Zach se despiertan en una habitación extraña en un mundo aún más extraño sin su amigo Doug. Cuando conocen al altivo Effing y al alcohólico Justmitch, los tres empiezan a encajar las piezas del misterio y se dan cuenta de que están en los Juegos de la Resaca. Pero en lugar de los doce distritos de los Juegos del Hambre, los chicos tienen que hacer un mano a mano con varios distritos de la cultura pop, como el Distrito de los Superhéroes, el Distrito de la Desnudez Gratuita y el Distrito Johnny Depp.


CAPTURAS (propias)

INFORMACION


Calidad: DVDRip
Peso: 863 MB
Duracion: 85 min
Formato: Avi
Idioma: Ingles
Subtitulos: Si

DESCARGA






Descargar Los Juegos Del Resacón (The Hungover Games) (2014) [DVDRip] [subtitulada] (HD)

Ver Online Los Juegos Del Resacón (The Hungover Games) (2014) [DVDRip] [subtitulada]


Descargar Los Juegos Del Resacón (The Hungover Games) (2014) [DVDRip] [subtitulada]
Download Los Juegos Del Resacón (The Hungover Games) (2014) [DVDRip] [subtitulada]

The Best Man Holiday (2013) DVDR1 [NTSC][Aud:Ing/Sub Esp Lat & Ing][Comedia]

The Best Man Holiday
Año 2013
País Estados Unidos
Director Malcolm D. Lee
Guión Malcolm D. Lee
Reparto
Terrence Howard, Harold Perrineau, Nia Long, Morris Chestnut, Taye Diggs, Sanaa Lathan
Eddie Cibrian, Regina Hall, Monica Calhoun, Melissa De Sousa, Millie Davis
Productora Universal Pictures / 40 Acres & A Mule Filmworks
Género Comedia | Secuela

Código:

Formato...............: DVDR1
Peso..................: 4,20 GB ISO
Norma.................: NTSC
Pantalla..............: 16:9
Audios................: Ingles 2.0 - 5.1
Subtítulos............: Ingles / Español Latino
Menú..................: SI
Extras................: Si
Pass..................: M23



Continuación de la película de 1999, se centra en un escritor cuya reciente autobiografía le pone en conflicto con ser el padrino en la boda de un amigo. (FILMAFFINITY)

[YOUTUBE]k6iNiJivOOQ[/YOUTUBE]











Código:

http://www.relink.us/f/d864c18caeaf6d28714e198263faf1

Código:

http://www.relink.us/f/5e356cb90086d8c93471b853a1df21

Código:

http://www.relink.us/f/a3caccfe25eee988b77d107e7ffebb

Código:

http://www.relink.us/f/0245ba6f09541ebb5ff0ac7b6ab81c

Código:

http://www.relink.us/f/7a9a9541e2926fd78be6ff386565bd

Descargar The Best Man Holiday (2013) DVDR1 [NTSC][Aud:Ing/Sub Esp Lat & Ing][Comedia] (HD)

Ver Online The Best Man Holiday (2013) DVDR1 [NTSC][Aud:Ing/Sub Esp Lat & Ing][Comedia]


Descargar The Best Man Holiday (2013) DVDR1 [NTSC][Aud:Ing/Sub Esp Lat & Ing][Comedia]
Download The Best Man Holiday (2013) DVDR1 [NTSC][Aud:Ing/Sub Esp Lat & Ing][Comedia]

Grand Piano [2013] [720p.WEB-DL.H264][Aud:Ing/Sub Esp Lat][Thriller/Intriga]

Grand Piano
Año 2013
Duración 90 min.
País España
Director Eugenio Mira
Guión Damien Chazelle
Música Víctor Reyes
Fotografía Unax Mendía
Reparto
Elijah Wood, John Cusack, Alex Winter, Kerry Bishé, Allen Leech, Tamsin Egerton, Dee Wallace, Mino Mackic
Productora Nostromo Pictures / Antena 3 Films / Telefónica Producciones / Nostromo Canarias 1 AIE
Género Thriller. Intriga | Música

Código:

  / ___  /      __    __        __  ______
      / /  / /      / /    / /_      / / / / __
      / /__/ /      / /    / /_/      / / / / / / /
    / _____/_  __/ /____/ /______  / /_/ / / / /
    / /    / /  / / ___  / / / ___/ / __  / / / /
  / /    / /__/ / /__/ / / / /___ / / / / / / /
  /_/    /______/______/_/_/_____//_/ /_/_____/

  PublicHD - High-Definition Bittorrent Community

Grand.Piano.2013.720p.WEB-DL.H264-PublicHD

 http://www.imdb.com/title/tt2039345/

Rating .............: 6.4/10 from 367 users
Screens.............: Opening Week - 2013
Genre ..............: Thriller

Date ...............: January 31 2013
Runtime ............: 1hr 30m
Size ...............: 2.79 GB
Video ..............: 1280x530
Bitrate ............: 3959 kbps (H264 Main@L3.1)
Audio 1.............: English DD5.1 Ch 384 kbps

*****************SUBTITULOS*********************** ***
SUBTITULO 1 : INCORPORADOS AL VIDEO ESPAÑOL LATINO (Selectable)
SUBTITULO 2 : ESPAÑOL LATINO .SRT

SUBTITULOS X ***TAMABIN***




Un pianista se sienta al piano y se encuentra una nota amenazadora, en la que se le conmina a ejecutar el mejor concierto de su vida si quiere salvar su vida y la de su esposa. (FILMAFFINITY)

[YOUTUBE]SSDDA7gdwcU[/YOUTUBE]







Código:

http://www.relink.us/f/f889ba73e3e26578e78b3c4b7d1ac2

Código:

http://www.relink.us/f/294f43aa34205d6f919d3a1d3a3f38

Código:

http://www.relink.us/f/a7f0aa4b8bd8a2d73e37a786385def

Código:

http://www.relink.us/f/8c172f217534fa755a6a305fdfcaa0

Código:

http://www.relink.us/f/a200a57b094e7bfcd23c8d1a049865

Descargar Grand Piano [2013] [720p.WEB-DL.H264][Aud:Ing/Sub Esp Lat][Thriller/Intriga] (HD)

Ver Online Grand Piano [2013] [720p.WEB-DL.H264][Aud:Ing/Sub Esp Lat][Thriller/Intriga]


Descargar Grand Piano [2013] [720p.WEB-DL.H264][Aud:Ing/Sub Esp Lat][Thriller/Intriga]
Download Grand Piano [2013] [720p.WEB-DL.H264][Aud:Ing/Sub Esp Lat][Thriller/Intriga]

El Mayordomo [BDrip 1080][Ac3 (es-ES);DTS (en-US)][Drama][2013]

El mayordomo

Cita:

Título original Lee Daniels’ The Butler
Año 2013
Duración 132 min.
País [Estados Unidos] Estados Unidos
Director Lee Daniels
Guión Lee Daniels, Danny Strong
Música Rodrigo Leão
Fotografía Andrew Dunn
Reparto Forest Whitaker, Oprah Winfrey, David Oyelowo, Cuba Gooding Jr., John Cusack, Terrence Howard, Lenny Kravitz, James Marsden, Vanessa Redgrave, Alan Rickman, Liev Schreiber, Robin Williams, Jane Fonda, Clarence Williams III, David Banner, Michael Rainey Jr., Alex Pettyfer, Mariah Carey, Nelsan Ellis, Yaya Alafia
Productora The Weinstein Company / Laura Ziskin Productions / Windy Hill Pictures
Género Drama | Racismo. Basado en hechos reales. Años 50. Años 60. Años 70. Años 80
Puntuacion:6,6


Sinopsis Una mirada a la vida de Cecil Gaines (Forest Whitaker), mayordomo jefe de la Casa Blanca durante el mandato de ocho presidentes (1952-1986), lo que le permitió ser testigo directo de la historia política y racial de los Estados Unidos. (FILMAFFINITY)

Premios
2013: Premios BAFTA: Nominada a Mejor actriz secundaria (Oprah) y mejor maquillaje
2013: Satellite Awards: 3 nominaciones, incluyendo mejor actor (Forest Whitaker)

Código:

Format                                  : Matroska
Format version                          : Version 4 / Version 2
File size                                : 14.4 GiB
Duration                                : 2h 12mn
Overall bit rate                        : 15.6 Mbps
Movie name                              : El Mayordomo 1080 Baalberith
Encoded date                            : UTC 2014-02-04 16:10:20
Writing application                      : mkvmerge v6.4.1 ('Omega Point') built on Sep 16 2013 22:05:10
Writing library                          : libebml v1.3.0 + libmatroska v1.4.1

Video
ID                                      : 1
Format                                  : AVC
Format/Info                              : Advanced Video Codec
Format profile                          : High@L4.1
Format settings, CABAC                  : Yes
Format settings, ReFrames                : 4 frames
Codec ID                                : V_MPEG4/ISO/AVC
Duration                                : 2h 12mn
Bit rate                                : 13.7 Mbps
Width                                    : 1 920 pixels
Height                                  : 1 040 pixels
Display aspect ratio                    : 1.85:1
Frame rate                              : 23.976 fps
Color space                              : YUV
Chroma subsampling                      : 4:2:0
Bit depth                                : 8 bits
Scan type                                : Progressive
Bits/(Pixel*Frame)                      : 0.285
Stream size                              : 12.3 GiB (85%)
Title                                    : El Mayordomo 1080 Baalberith
Writing library                          : x264 core 130 r2273 b3065e6
Encoding settings                        : cabac=1 / ref=4 / deblock=1:-3:-3 / analyse=0x3:0x133 / me=umh / subme=11 / psy=1 / psy_rd=1.05:0.05 / mixed_ref=1 / me_range=64 / chroma_me=1 / trellis=2 / 8x8dct=1 / cqm=0 / deadzone=21,11 / fast_pskip=0 / chroma_qp_offset=-3 / threads=12 / lookahead_threads=2 / sliced_threads=0 / nr=0 / decimate=1 / interlaced=0 / bluray_compat=0 / constrained_intra=0 / bframes=8 / b_pyramid=2 / b_adapt=2 / b_bias=0 / direct=3 / weightb=1 / open_gop=0 / weightp=2 / keyint=250 / keyint_min=23 / scenecut=40 / intra_refresh=0 / rc_lookahead=60 / rc=2pass / mbtree=1 / bitrate=13663 / ratetol=1.0 / qcomp=0.60 / qpmin=0 / qpmax=69 / qpstep=4 / cplxblur=20.0 / qblur=0.5 / vbv_maxrate=40000 / vbv_bufsize=30000 / nal_hrd=none / ip_ratio=1.40 / aq=1:0.70
Language                                : Spanish
Default                                  : Yes
Forced                                  : No

Audio #1
ID                                      : 2
Format                                  : AC-3
Format/Info                              : Audio Coding 3
Mode extension                          : CM (complete main)
Format settings, Endianness              : Big
Codec ID                                : A_AC3
Duration                                : 2h 12mn
Bit rate mode                            : Constant
Bit rate                                : 448 Kbps
Channel(s)                              : 6 channels
Channel positions                        : Front: L C R, Side: L R, LFE
Sampling rate                            : 48.0 KHz
Bit depth                                : 16 bits
Compression mode                        : Lossy
Stream size                              : 423 MiB (3%)
Title                                    : Ac3 5.1@448 kbps
Language                                : Spanish
Default                                  : Yes
Forced                                  : No

Audio #2
ID                                      : 3
Format                                  : DTS
Format/Info                              : Digital Theater Systems
Codec ID                                : A_DTS
Duration                                : 2h 12mn
Bit rate mode                            : Constant
Bit rate                                : 1 510 Kbps
Channel(s)                              : 6 channels
Channel positions                        : Front: L C R, Side: L R, LFE
Sampling rate                            : 48.0 KHz
Bit depth                                : 24 bits
Compression mode                        : Lossy
Stream size                              : 1.39 GiB (10%)
Title                                    : DTS 5.1@1510 kbps
Language                                : English
Default                                  : No
Forced                                  : No

Text #1
ID                                      : 4
Format                                  : UTF-8
Codec ID                                : S_TEXT/UTF8
Codec ID/Info                            : UTF-8 Plain Text
Title                                    : Forzados
Language                                : Spanish
Default                                  : Yes
Forced                                  : No

Text #2
ID                                      : 5
Format                                  : UTF-8
Codec ID                                : S_TEXT/UTF8
Codec ID/Info                            : UTF-8 Plain Text
Title                                    : Spanish
Language                                : Spanish
Default                                  : No
Forced                                  : No

Text #3
ID                                      : 6
Format                                  : UTF-8
Codec ID                                : S_TEXT/UTF8
Codec ID/Info                            : UTF-8 Plain Text
Title                                    : English
Language                                : English
Default                                  : No
Forced                                  : No

Menu
00:00:00.000                            : en:00:00:00.000
00:07:27.072                            : en:00:07:27.072
00:13:51.497                            : en:00:13:51.497
00:22:26.679                            : en:00:22:26.679
00:28:57.736                            : en:00:28:57.736
00:36:38.530                            : en:00:36:38.530
00:45:13.294                            : en:00:45:13.294
00:51:56.196                            : en:00:51:56.196
00:59:22.476                            : en:00:59:22.476
01:07:08.399                            : en:01:07:08.399
01:15:09.380                            : en:01:15:09.380
01:20:14.101                            : en:01:20:14.101
01:27:25.866                            : en:01:27:25.866
01:35:12.707                            : en:01:35:12.707
01:42:12.293                            : en:01:42:12.293
01:49:09.251                            : en:01:49:09.251
01:56:22.142                            : en:01:56:22.142
02:04:42.058                            : en:02:04:42.058



Tamaño:14,4Gb
Formato / Contenedor: Matroska
Video Codec: AVC
Profile: High@L4.1 Marcos:4
Resolución: 1920×1040
Audio 1: Spanish Ac3 448 Kbps 6 channels
Audio 2: English DTS 1510 Kbps 6 channels
Subtitulos:Forzados,Spanish,English.

Servidor(es) : Rapidgator,DDLStorage,Uploaded.net,Bitshare,Tusfil es,Putlocker (98%-2)…INTERCAMBIABLES.
Formato Compresión : Comprimido y partido en 31 partes con winrar.
Archivos recuperación : Contiene 3 archivos de recuperación rar (Se abren con winrar)
Verificación : 1 archivo verificador
Sample:SI Contiene sample de aprx.100-150mb para ver calidad audio/video/subs,sincronizacion etc.
Capitulos:SI contiene capitulos.
Recuperacion:SI, cada archivo consta de un 5% de recuperacion.

En Putlocker faltan los 2 primeros archivos,los cuales podeis descargar desde el resto de servidores,son intercambiables.

Montaje:Baalberith

Descargar El mayordomo 1080p

Código:

http://www.miniurls.co/5e751bb2

Código:

http://adf.ly/d4FHg

Un saludo.

Descargar El Mayordomo [BDrip 1080][Ac3 (es-ES);DTS (en-US)][Drama][2013] (HD)

Ver Online El Mayordomo [BDrip 1080][Ac3 (es-ES);DTS (en-US)][Drama][2013]


Descargar El Mayordomo [BDrip 1080][Ac3 (es-ES);DTS (en-US)][Drama][2013]
Download El Mayordomo [BDrip 1080][Ac3 (es-ES);DTS (en-US)][Drama][2013]

El Mayordomo [BDrip 720][Ac3 (es-ES);DTS (en-US)][Drama][2013]

El mayordomo

Cita:

Título original Lee Daniels’ The Butler
Año 2013
Duración 132 min.
País [Estados Unidos] Estados Unidos
Director Lee Daniels
Guión Lee Daniels, Danny Strong
Música Rodrigo Leão
Fotografía Andrew Dunn
Reparto Forest Whitaker, Oprah Winfrey, David Oyelowo, Cuba Gooding Jr., John Cusack, Terrence Howard, Lenny Kravitz, James Marsden, Vanessa Redgrave, Alan Rickman, Liev Schreiber, Robin Williams, Jane Fonda, Clarence Williams III, David Banner, Michael Rainey Jr., Alex Pettyfer, Mariah Carey, Nelsan Ellis, Yaya Alafia
Productora The Weinstein Company / Laura Ziskin Productions / Windy Hill Pictures
Género Drama | Racismo. Basado en hechos reales. Años 50. Años 60. Años 70. Años 80
Puntuacion:6,6


Sinopsis Una mirada a la vida de Cecil Gaines (Forest Whitaker), mayordomo jefe de la Casa Blanca durante el mandato de ocho presidentes (1952-1986), lo que le permitió ser testigo directo de la historia política y racial de los Estados Unidos. (FILMAFFINITY)

Premios
2013: Premios BAFTA: Nominada a Mejor actriz secundaria (Oprah) y mejor maquillaje
2013: Satellite Awards: 3 nominaciones, incluyendo mejor actor (Forest Whitaker)

Código:


Format                                  : Matroska
Format version                          : Version 4 / Version 2
File size                                : 6.97 GiB
Duration                                : 2h 12mn
Overall bit rate                        : 7 556 Kbps
Movie name                              : El Mayordomo 720 Baalberith
Encoded date                            : UTC 2014-02-04 15:43:14
Writing application                      : mkvmerge v6.4.1 ('Omega Point') built on Sep 16 2013 22:05:10
Writing library                          : libebml v1.3.0 + libmatroska v1.4.1

Video
ID                                      : 1
Format                                  : AVC
Format/Info                              : Advanced Video Codec
Format profile                          : High@L4.1
Format settings, CABAC                  : Yes
Format settings, ReFrames                : 9 frames
Codec ID                                : V_MPEG4/ISO/AVC
Duration                                : 2h 12mn
Bit rate                                : 5 602 Kbps
Width                                    : 1 280 pixels
Height                                  : 692 pixels
Display aspect ratio                    : 1.85:1
Frame rate                              : 23.976 fps
Color space                              : YUV
Chroma subsampling                      : 4:2:0
Bit depth                                : 8 bits
Scan type                                : Progressive
Bits/(Pixel*Frame)                      : 0.264
Stream size                              : 5.03 GiB (72%)
Title                                    : El Mayordomo 720 Baalberith
Writing library                          : x264 core 130 r2273 b3065e6
Encoding settings                        : cabac=1 / ref=9 / deblock=1:-3:-3 / analyse=0x3:0x133 / me=umh / subme=11 / psy=1 / psy_rd=1.05:0.05 / mixed_ref=1 / me_range=32 / chroma_me=1 / trellis=2 / 8x8dct=1 / cqm=0 / deadzone=21,11 / fast_pskip=0 / chroma_qp_offset=-3 / threads=12 / lookahead_threads=2 / sliced_threads=0 / nr=0 / decimate=1 / interlaced=0 / bluray_compat=0 / constrained_intra=0 / bframes=8 / b_pyramid=2 / b_adapt=2 / b_bias=0 / direct=3 / weightb=1 / open_gop=0 / weightp=2 / keyint=250 / keyint_min=23 / scenecut=40 / intra_refresh=0 / rc_lookahead=60 / rc=2pass / mbtree=1 / bitrate=5602 / ratetol=1.0 / qcomp=0.60 / qpmin=0 / qpmax=69 / qpstep=4 / cplxblur=20.0 / qblur=0.5 / ip_ratio=1.40 / aq=1:0.70
Language                                : Spanish
Default                                  : Yes
Forced                                  : No

Audio #1
ID                                      : 2
Format                                  : AC-3
Format/Info                              : Audio Coding 3
Mode extension                          : CM (complete main)
Format settings, Endianness              : Big
Codec ID                                : A_AC3
Duration                                : 2h 12mn
Bit rate mode                            : Constant
Bit rate                                : 448 Kbps
Channel(s)                              : 6 channels
Channel positions                        : Front: L C R, Side: L R, LFE
Sampling rate                            : 48.0 KHz
Bit depth                                : 16 bits
Compression mode                        : Lossy
Stream size                              : 423 MiB (6%)
Title                                    : Ac3 5.1@448 kbps
Language                                : Spanish
Default                                  : Yes
Forced                                  : No

Audio #2
ID                                      : 3
Format                                  : DTS
Format/Info                              : Digital Theater Systems
Codec ID                                : A_DTS
Duration                                : 2h 12mn
Bit rate mode                            : Constant
Bit rate                                : 1 510 Kbps
Channel(s)                              : 6 channels
Channel positions                        : Front: L C R, Side: L R, LFE
Sampling rate                            : 48.0 KHz
Bit depth                                : 24 bits
Compression mode                        : Lossy
Stream size                              : 1.39 GiB (20%)
Title                                    : DTS 5.1@1510 kbps
Language                                : English
Default                                  : No
Forced                                  : No

Text #1
ID                                      : 4
Format                                  : UTF-8
Codec ID                                : S_TEXT/UTF8
Codec ID/Info                            : UTF-8 Plain Text
Title                                    : Forzados
Language                                : Spanish
Default                                  : Yes
Forced                                  : No

Text #2
ID                                      : 5
Format                                  : UTF-8
Codec ID                                : S_TEXT/UTF8
Codec ID/Info                            : UTF-8 Plain Text
Title                                    : Spanish
Language                                : Spanish
Default                                  : No
Forced                                  : No

Text #3
ID                                      : 6
Format                                  : UTF-8
Codec ID                                : S_TEXT/UTF8
Codec ID/Info                            : UTF-8 Plain Text
Title                                    : English
Language                                : English
Default                                  : No
Forced                                  : No

Menu
00:00:00.000                            : en:00:00:00.000
00:07:27.072                            : en:00:07:27.072
00:13:51.497                            : en:00:13:51.497
00:22:26.679                            : en:00:22:26.679
00:28:57.736                            : en:00:28:57.736
00:36:38.530                            : en:00:36:38.530
00:45:13.294                            : en:00:45:13.294
00:51:56.196                            : en:00:51:56.196
00:59:22.476                            : en:00:59:22.476
01:07:08.399                            : en:01:07:08.399
01:15:09.380                            : en:01:15:09.380
01:20:14.101                            : en:01:20:14.101
01:27:25.866                            : en:01:27:25.866
01:35:12.707                            : en:01:35:12.707
01:42:12.293                            : en:01:42:12.293
01:49:09.251                            : en:01:49:09.251
01:56:22.142                            : en:01:56:22.142
02:04:42.058                            : en:02:04:42.058



Tamaño:6,97Gb
Formato / Contenedor: Matroska
Video Codec: AVC
Profile: High@L4.1 Marcos:9
Resolución: 1280×692
Audio 1: Spanish Ac3 448 Kbps 6 channels
Audio 2: English DTS 1510 Kbps 6 channels
Subtitulos:Forzados,Spanish,English.

Servidor(es) : Rapidgator,DDLStorage,Uploaded.net,Bitshare,Tusfil es,Putlocker (98%-2)…INTERCAMBIABLES.
Formato Compresión : Comprimido y partido en 15 partes con winrar.
Archivos recuperación : Contiene 3 archivos de recuperación rar (Se abren con winrar)
Verificación : 1 archivo verificador
Sample:SI Contiene sample de aprx.100-150mb para ver calidad audio/video/subs,sincronizacion etc.
Capitulos:SI contiene capitulos.
Recuperacion:SI, cada archivo consta de un 5% de recuperacion.

En Putlocker faltan los 2 primeros archivos,los cuales podeis descargar desde el resto de servidores,son intercambiables.

Montaje:Baalberith

Descargar El mayordomo 720p

Código:

http://www.miniurls.co/ff5178a1

Código:

http://adf.ly/d49uY

Un saludo.

Descargar El Mayordomo [BDrip 720][Ac3 (es-ES);DTS (en-US)][Drama][2013] (HD)

Ver Online El Mayordomo [BDrip 720][Ac3 (es-ES);DTS (en-US)][Drama][2013]


Descargar El Mayordomo [BDrip 720][Ac3 (es-ES);DTS (en-US)][Drama][2013]
Download El Mayordomo [BDrip 720][Ac3 (es-ES);DTS (en-US)][Drama][2013]

20 Años No Importan

Calidad: DVDScreener
– Genero: Comedia
– Descripcion: Título: 20 años no importan
Título original: 20 ans d écart
País: Francia
Estreno en España: 31/01/2014
Estreno en Francia: 06/03/2013
Productora: Echo Films, EuropaCorp, TF1 Films Production
Director: David Moreau
Guión: Amro Hamzawi, David Moreau, Virginie Efira
Reparto: Virginie Efira, …

Descargar 20 Años No Importan (HD)

Ver Online 20 Años No Importan


Descargar 20 Años No Importan
Download 20 Años No Importan